<?xml version="1.0" standalone="no"?>
<!DOCTYPE svg PUBLIC "-//W3C//DTD SVG 1.1//EN" "http://www.w3.org/Graphics/SVG/1.1/DTD/svg11.dtd" >
<svg xmlns="http://www.w3.org/2000/svg">
<metadata>
This is a custom SVG webfont generated by Font Squirrel.
Copyright   : Created with FontForge 20 httpfontforgesfnet
</metadata>
<defs>
<font id="SocialIconsMedium" horiz-adv-x="1650" >
<font-face units-per-em="2048" ascent="1638" descent="-410" />
<missing-glyph horiz-adv-x="500" />
<glyph unicode="A" d="M8 219q0 94 58 158q59 66 151 65q109 -4 168 -65q61 -66 61 -166v-4q0 -92 -69.5 -149.5t-163.5 -57.5q-84 0 -145 61q-60 60 -60 158zM8 768v322q223 0 434 -89q205 -86 365 -253q276 -295 283 -748h-320q0 311 -233 549q-214 219 -529 219zM8 1327v322h29 q680 0 1155 -492q233 -240 342 -549q113 -319 113 -600v-8h-320v8q0 250 -100 508q-98 250 -269 418q-188 190 -438 291q-258 102 -512 102z" />
<glyph unicode="B" horiz-adv-x="1607" d="M23 492v614q0 18 4 49t37.5 113t93 147.5t139.5 105.5t129 48l51 6h379q14 0 41 -4t102.5 -37t141.5 -88q70 -57 116 -151.5t46 -176.5v-4q0 -57 19 -90t38 -37l20 -6h125q4 2 9 2q19 0 49 -29q25 -23 24 -57v-436q-2 -18 -7 -50t-34.5 -110t-77.5 -129 q-68 -76 -153.5 -118t-122.5 -47t-59 -5h-670q-18 2 -51 9t-112 44t-134 92q-123 123 -141 328zM434 1051q-2 -27 29 -52q12 -8 26.5 -13t22.5 -5h8h293q35 0 59 25q12 12 18.5 26.5t6.5 20.5v8v31q4 20 -25 49q-27 25 -59 24h-297q-3 1 -7 1q-20 0 -46 -21q-29 -25 -29 -53 v-41zM436 477q-2 -25 27 -47q14 -10 27.5 -14t21.5 -4h6h578h4q28 0 53 24q10 12 17.5 23.5t9.5 17.5l2 6v37q-2 20 -25 45q-10 12 -27.5 20.5t-27.5 10.5l-12 2h-568q-31 0 -59 -20q-12 -8 -18.5 -19.5t-6.5 -17.5l-2 -9v-55z" />
<glyph unicode="C" d="M33 815q0 160 105.5 269.5t262.5 109.5q135 0 247 -105.5t112 -248.5q0 -141 -104.5 -256t-241.5 -115q-152 0 -266.5 102.5t-114.5 243.5zM893 852q0 150 104.5 257.5t249.5 107.5q156 0 264.5 -102.5t108.5 -256.5q0 -158 -106.5 -263.5t-245.5 -105.5 q-152 0 -263.5 108t-111.5 255z" />
<glyph unicode="D" horiz-adv-x="1675" d="M88 143v639h719v-700h-653h-7q-23 0 -41 18q-8 8 -12 18.5t-4 16.5zM877 856v102l104 -102h-104zM877 1055v100l299 -299h-103zM877 1245v103l491 -492h-102zM877 1444v102l688 -690h-99zM971 1548l110 2l506 -506v-114zM1182 1550l106 -2l301 -303v-104zM1391 1550 l98 -2l100 -102v-100zM1552 1552h37v-39z" />
<glyph unicode="E" horiz-adv-x="1640" d="M20 700q2 201 11.5 291t42.5 178q29 76 92 152t131 76h4q76 -2 136.5 -74t88.5 -147q55 -147 56 -426v-52h-242l-4 -401q41 -6 57.5 -10t47 -16.5t43 -32t12.5 -48.5q0 -53 -44 -79.5t-81 -26.5h-164q-39 2 -83 25.5t-44 68.5q0 39 19.5 60.5t42 29.5t87.5 25v403 q-33 0 -88 1t-88 3h-33zM545 1262h217v-230q6 -20 20 -31l37 -12h488q33 4 43 15l22 30v236h174q45 -4 60 -29q8 -10 12 -28.5t4 -32.5v-13v-299q-2 -37 -23 -55q-23 -18 -43 -16h-137v-709q-2 -39 -16 -53q-6 -6 -19.5 -11.5t-23.5 -7.5h-8h-234v519q-4 27 -24 26 q-10 -2 -17.5 -8t-9.5 -12l-2 -6l-2 -519h-293q-3 -1 -6 0q-17 0 -41 17q-12 8 -18.5 19t-8.5 18v8v772l-69 2q-4 131 -21 219q-6 35 -15 63.5t-23.5 65.5t-22.5 62zM815 1094v6v389q-2 23 16 41q16 14 39 14h394h4q20 0 35 -16q8 -8 12 -18.5t4 -14.5v-6v-391 q4 -14 -14 -37q-8 -10 -18 -14q-6 -3 -11 -3h-4h-6h-396h-4q-18 0 -35 17q-8 8 -12 18.5t-4 14.5z" />
<glyph unicode="F" horiz-adv-x="780" d="M6 811v287h162v215q0 127 83 222t198 95h315v-278h-166q-33 0 -57.5 -27t-24.5 -55v-170h252l-33 -283h-219v-817h-346v811h-164z" />
<glyph unicode="G" horiz-adv-x="1619" d="M12 848q0 98 21 156q41 106 85 185t122.5 172t205.5 159.5t293 97.5q86 16 179 16q109 0 192 -22q102 -29 261 -92.5t159 -85.5q0 -2 -2 -4l-160 -164l-106 -27l51 109q-20 18 -56 44.5t-125.5 76t-154.5 57.5q-78 8 -115 8q-123 0 -229 -61q-352 -201 -352 -586 q0 -45 2 -68q12 -184 114.5 -352t282.5 -262q147 -78 360 -78q152 0 252 53q2 37 2 82l-2 234h-338l172 104h480l-70 -80v-373l-330 -114q-113 -27 -254 -27q-147 0 -282 25q-209 59 -270.5 93t-192.5 165q-98 96 -146.5 254t-48.5 305z" />
<glyph unicode="H" horiz-adv-x="1742" d="M23 555q0 100 56 190.5t141 150.5t185.5 105.5t190.5 65.5t154 20v-155q-467 -102 -467 -377q0 -158 146 -257t370 -134v1276l254 123v-1436l-256 -123q-102 6 -225 40t-251 96.5t-213 172t-85 242.5zM1098 930v162q131 -14 235 -48q41 -12 75 -26t79 -35.5t72 -34.5 l133 74l32 -371l-495 111l135 78q-104 53 -119 57q-10 4 -147 33z" />
<glyph unicode="I" horiz-adv-x="1689" d="M12 1425v9q0 80 52.5 138t130.5 60h4q82 0 139 -57t61 -141v-9q0 -78 -55 -132t-135 -56h-2q-78 0 -135.5 54t-59.5 134zM14 0l2 1126h377v-1126h-379zM573 2v1124h381v-110q2 0 17.5 14t41 29.5t63.5 33t97.5 29t129.5 13.5q90 -2 159.5 -28t106.5 -60.5t61.5 -85 t31.5 -87t11 -79.5v-795l-385 2v750q-4 27 -47 63.5t-111 36.5h-4q-76 -2 -124 -37t-48 -61v-754z" />
<glyph unicode="J" horiz-adv-x="1603" d="M82 614v424h514v512h428v-516h500v-422h-494v-516h-434v518h-514z" />
<glyph unicode="K" horiz-adv-x="1662" d="M16 1380h1633v-1237h-1631zM127 373l403 403l-403 404v-807zM203 274h1239l-414 412q-57 -55 -99 -77.5t-104 -24.5h-6q-41 0 -77.5 17t-56 33.5t-62.5 59.5zM213 1270l483 -484l19 -18q16 -16 21 -19.5t19.5 -13.5t28 -13t29.5 -3h10q74 0 131 61l492 490h-1233z M1122 770l406 -405v811z" />
<glyph unicode="L" horiz-adv-x="1722" d="M2 678v10q4 233 153.5 374.5t344.5 149.5q98 -8 177 -32.5t121 -54t69.5 -59.5t41 -50.5t17.5 -22.5q18 -20 58 -114.5t102.5 -242t119.5 -257.5q49 -82 164 -82q76 0 146 35q29 14 52 58t23 91q0 43 -20 70q-31 39 -90.5 66.5t-114.5 41t-117.5 47t-99.5 87.5 q-45 63 -45 145q0 121 78 188q76 68 194 68q35 0 90 -6q37 -4 77 -39t63 -68l20 -30l-104 -52q-14 18 -23.5 28.5t-19 19t-12.5 10.5t-17 8t-23 10q-2 0 -5 -1t-5 -1q-12 0 -31.5 3t-27.5 3q-23 0 -39 -12q-10 -8 -19.5 -13t-15.5 -10.5t-11 -10.5t-9 -8t-7.5 -8t-5.5 -8 t-4 -10l-3 -9q-1 -3 -3 -11t-4 -12t-2 -33q0 -63 22 -80q72 -53 196 -87t179 -81q53 -43 71.5 -89t18.5 -128q0 -131 -91 -215t-245 -92h-18q-90 0 -169 49t-116 119q-59 106 -129.5 289.5t-142.5 306.5q-35 59 -122 101t-179 44h-6q-152 0 -261.5 -110.5t-109.5 -268.5v-4 q2 -168 108.5 -279.5t276.5 -113.5h4q59 0 114.5 20.5t91.5 49t63.5 57.5t39.5 49l13 21l59 -146q-47 -51 -90 -90q-43 -37 -137 -69.5t-182 -32.5h-7q-182 4 -333.5 153.5t-151.5 370.5z" />
<glyph unicode="M" horiz-adv-x="1460" d="M27 487v312q6 285 217 284q111 0 180 -106l4 -8q8 10 22.5 24.5t66.5 39t112 24.5q66 0 121 -39t78.5 -72t23.5 -39q12 10 31.5 25.5t82 41t124.5 25.5h4q129 -2 229 -91t119 -238v-668h-709v322h-375v163h-331zM88 1260q0 63 41 114t102 51q63 0 111.5 -44t50.5 -107v-8 q0 -61 -43 -105.5t-106 -44.5q-61 0 -108.5 43.5t-47.5 100.5zM430 1282v4q2 78 58.5 132.5t134.5 54.5q76 0 130 -59.5t54 -129.5q0 -76 -57.5 -134t-131.5 -58q-76 0 -132 56t-56 134zM831 1307q0 109 77 185.5t184 76.5q100 0 178 -78t78 -184q0 -102 -81 -180t-177 -78 q-106 0 -182.5 76t-76.5 182z" />
<glyph unicode="N" horiz-adv-x="1114" d="M125 578q0 47 35 83.5t80 36.5t82.5 -31.5t39.5 -74.5q0 -20 -1 -28.5t-1 -14.5l146 -98v327l-203 144q-8 -2 -18.5 -7.5t-19.5 -8.5t-27 -3l-2 -2q-39 0 -75 35t-36 82q0 49 35 88t84 39q43 0 80.5 -35t40.5 -78q0 -14 -1.5 -21t-3.5 -12.5t-2 -11.5l148 -90v328 l-201 137l-67 -10q-45 0 -79 34.5t-34 81.5q0 49 34 84t81 35q45 0 83.5 -31.5t41.5 -74.5q2 -18 -0.5 -28.5t-2.5 -14.5l144 -101v293h104v-522l144 98q0 4 -1 8.5t-1 24.5q0 53 36.5 86t81.5 33q49 0 85 -34t36 -85q0 -47 -34.5 -83t-75.5 -38q-16 0 -27.5 3t-22 7.5 t-20.5 6.5l-201 -142v-329l144 100q-4 29 -4 37q0 39 36.5 74.5t87.5 35.5q49 0 83 -32.5t34 -83.5q0 -53 -36.5 -86t-82.5 -35q-18 0 -28 3t-17.5 7t-15.5 6l-201 -137v-334l146 100q-4 25 -4 33q0 47 37.5 81t82.5 34q47 0 83 -34t36 -87q0 -51 -39 -85t-78 -34 q-16 0 -27 3t-19.5 8.5t-16.5 7.5l-199 -137v-111h-104v334l-205 143q-25 -16 -65 -16q-45 2 -79 38t-34 81z" />
<glyph unicode="O" horiz-adv-x="1562" d="M31 1145q0 -104 55 -195q-14 -72 -14 -145q0 -246 145 -428q98 -125 243.5 -202t321.5 -77q70 0 140 13q90 -55 200 -56q137 0 254 92q66 51 109 140.5t43 189.5q0 104 -49 195q8 66 8 125q0 313 -193 510q-106 106 -242.5 162.5t-269.5 56.5q-82 0 -139 -17 q-94 55 -203 56q-162 0 -280 -119q-129 -133 -129 -301zM422 569v6q0 33 25.5 56.5t60.5 23.5h4q31 0 53.5 -18.5t48 -50t44 -46t37 -22.5t30.5 -9t35.5 -2t38.5 -3q4 0 12 -1t12 -1q68 0 105 34.5t37 79.5q0 63 -58 78q-47 14 -114 31l-68 16q-4 2 -37 9.5t-42 10.5 t-38.5 12t-41 15.5t-36 19.5t-35 25.5t-26.5 32t-23.5 41t-13.5 49t-6 58.5q0 113 103.5 184.5t236.5 71.5h10q164 -4 252 -61.5t107 -131.5q2 -4 2 -14q0 -31 -28 -53.5t-62 -22.5h-9q-33 2 -52 15.5t-37.5 38t-35.5 36.5q-49 37 -135 37h-16q-137 -6 -137 -100v-2 q0 -41 50 -64.5t152.5 -44t141.5 -33.5q111 -37 155.5 -94t44.5 -153v-9q-2 -127 -105 -194.5t-257 -67.5q-164 0 -270.5 61.5t-114.5 155.5z" />
<glyph unicode="P" horiz-adv-x="1660" d="M6 827q0 193 82 353q119 231 363 364l311 -278l-729 -658q-27 108 -27 219zM63 516l338 305l-2 -694q-80 53 -117.5 84t-84.5 86q-23 27 -42.5 54.5t-29.5 47t-29 56t-33 61.5zM494 78v389h1075q-188 -371 -615 -455q-45 -10 -116 -10q-98 0 -196.5 22.5t-147.5 53.5z M547 1579q106 59 284 59q143 0 336 -75v-541zM1255 551v960q104 -39 228.5 -197.5t161.5 -359.5q12 -68 12 -127q0 -109 -53 -276h-349z" />
<glyph unicode="Q" horiz-adv-x="1337" d="M90 338q25 10 90.5 31.5t104.5 48.5q133 96 159 172q10 33 18.5 137t26.5 147q39 100 136 201q35 -12 102.5 -39.5t111.5 -42t79 -20.5q12 -2 32 -2q39 0 106.5 20.5t96.5 24.5l76 -193l-148 -61q-14 -6 -53 -14.5t-58.5 -22.5t-29.5 -45q0 -4 -1 -9t-1 -7 q0 -31 22.5 -52.5t68.5 -62.5t83 -96q119 -178 143 -224l-198 -116q-100 133 -152 176q-162 135 -205 135q-25 0 -66.5 -44t-94 -103.5t-86.5 -81.5q-106 -70 -279 -115zM616 1335q0 90 66 161t160 71q96 0 164.5 -67.5t68.5 -162t-68.5 -163t-162.5 -68.5t-161 67.5 t-67 161.5z" />
<glyph unicode="R" horiz-adv-x="1703" d="M33 809v4q6 86 65.5 139.5t145.5 55.5h6q76 0 139 -56q31 12 74 32t76.5 33t74.5 23q35 8 67 13.5t73 8.5t67 7q0 152 58 229q59 80 165 80q63 0 175 -39q10 27 57 61t104 34q74 0 132.5 -50.5t58.5 -130t-55.5 -131t-126.5 -51.5h-5q-98 2 -155 78q-33 43 -33 113 q-14 4 -37.5 12t-38 12t-35 7t-41.5 3q-84 0 -120 -86q-10 -20 -13.5 -42.5t-4.5 -51.5t-3 -49q121 -8 219 -35q68 -18 193 -80q86 55 149 56q80 0 143.5 -54.5t63.5 -136.5q0 -131 -112 -178q0 -2 2 -10t4 -22.5t2 -28.5q0 -121 -97 -242q-80 -100 -246.5 -173t-361.5 -73 h-14q-207 4 -385 81t-264 216q-55 84 -56 191q0 33 9 57q-39 14 -79 69.5t-40 104.5zM119 803q0 -14 6 -29.5t10 -22t21 -22.5l14 -14q6 10 23.5 43t37.5 59q18 25 31.5 37t30 25.5t26.5 23.5q-39 23 -75 23q-31 0 -56 -13q-70 -39 -69 -106v-4zM229 573 q0 -160 184.5 -280.5t446.5 -120.5q246 0 432.5 115.5t186.5 287.5q0 131 -99.5 228.5t-242 142.5t-297.5 45q-233 0 -422 -117t-189 -301zM500 659q0 39 29.5 69t68.5 30t66.5 -26.5t27.5 -65.5q0 -41 -26.5 -67t-65.5 -26t-69.5 25.5t-30.5 60.5zM553 377q-5 8 -5 16 q0 14 13 27q14 18 39 12q6 -2 35 -20.5t82 -35t129 -16.5q74 0 134 17.5t94 37t40 19.5q23 2 37 -16q10 -18 7 -31.5t-9 -19.5q-45 -35 -134 -61.5t-171 -26.5q-78 0 -175.5 31.5t-115.5 66.5zM1016 659q0 41 28.5 70t67.5 29q31 -4 62.5 -37t31.5 -51v-2q0 -37 -25.5 -66 t-62.5 -29q-41 0 -71.5 23.5t-30.5 62.5zM1280 1251q2 -45 31.5 -72.5t72.5 -27.5q41 0 72 27.5t31 66.5v4q0 43 -30 73t-73 30q-41 0 -72.5 -30t-31.5 -71zM1386 903q8 -8 36 -30.5t44 -43.5l70 -112q49 41 51 82v10q0 53 -38 85t-87 32h-4q-23 0 -33 -3t-21.5 -10.5 t-17.5 -9.5z" />
<glyph unicode="S" horiz-adv-x="1628" d="M0 328v178h539q27 4 45 21.5t18 43.5q0 18 -12 39q-12 18 -46 25.5t-76 9.5t-56 6q-29 8 -57.5 23.5t-62.5 42t-54.5 70.5t-20.5 100q0 2 1 5t1 5q4 100 77 165.5t171 65.5h10h424q82 0 158 -71q51 -47 57 -129q2 -115 2 -342q0 -39 34 -60.5t77 -21.5q80 2 98 71v1063 h174v-1048v-4q0 -117 -80 -185.5t-188 -72.5h-10q-123 0 -194 64.5t-85 166.5l-2 338q0 27 -16 41q-8 8 -14.5 10t-13.5 1t-11 1h-428q-25 0 -44.5 -17.5t-19.5 -47.5q0 -53 84 -62q154 -12 205 -57q29 -29 44 -45t32.5 -57t17.5 -91q0 -68 -25.5 -117.5t-64.5 -75.5 t-69.5 -38t-57.5 -14h-561z" />
<glyph unicode="T" horiz-adv-x="1163" d="M12 614v902q0 78 70 118q55 35 121 35q47 0 96 -20q90 -43 90 -133v-269h604q98 -8 127 -61q39 -72 39 -142q0 -66 -35 -116q-43 -63 -100 -64h-633v-49q0 -221 29 -293q35 -90 182 -98l420 2q119 -35 133 -141q6 -39 6 -72q0 -70 -18 -107q-49 -98 -139 -98h-478 q-262 6 -393 174q-109 135 -121 432z" />
<glyph unicode="U" horiz-adv-x="1722" d="M0 45v4v1542q-2 14 12 31q6 6 14.5 10t14.5 6h6h363q-109 -135 -159 -235t-50 -240q0 -150 71.5 -289t182.5 -223l-39 -375l325 207q63 -25 177 -50t221 -25h8q131 2 291.5 50t285.5 136v-543q-2 -20 -14 -35l-37 -16h-1624q-16 0 -33 16q-8 8 -12 16.5t-4 12.5z M584 1155q0 184 158.5 314t375.5 130q221 0 390 -131t169 -301q0 -186 -169 -314t-386 -132h-4q-203 0 -368.5 132t-165.5 302z" />
<glyph unicode="V" horiz-adv-x="1570" d="M47 813q0 115 75 200t183 85q63 0 90 -11.5t84 -58.5l506 260q0 2 -1 8.5t-1 10.5q0 98 70.5 186t183.5 88q125 0 206 -77t83 -191v-2q0 -133 -88 -205t-172 -72q-70 0 -104 13.5t-77 48.5l-501 -252v-64l491 -248q16 10 35.5 28t29 23t37 10t76.5 5q106 0 188.5 -73.5 t82.5 -196.5q0 -115 -80 -195t-195 -80q-111 0 -189.5 76t-78.5 193q0 2 1 6t1 6l-508 262q-20 -6 -46 -19.5t-50.5 -20.5t-63.5 -7h-8q-109 0 -184.5 77.5t-75.5 186.5z" />
<glyph unicode="W" horiz-adv-x="1638" d="M2 813q0 346 243.5 585.5t569.5 239.5q336 0 579.5 -238.5t243.5 -568.5v-4q-2 -340 -235.5 -582.5t-587.5 -242.5q-336 0 -574.5 236.5t-238.5 574.5zM86 819q0 -195 68 -330q49 -102 141 -194t203 -150l-351 979q-61 -143 -61 -305zM203 1225q8 0 24.5 -4t32.5 -2 q82 4 203 8q12 0 12 -23q0 -6 -4 -10t-6 -5t-11.5 -3t-11.5 -2q-20 -4 -71 -8v-25l264 -793l164 492l-113 321q-51 10 -78 13q-4 2 -12 2t-13 3t-5 9q0 29 24 29h37q18 0 66.5 -3t101.5 -3q59 0 114.5 3t82 3t26.5 -23q0 -10 -5 -13t-26 -7q-6 -2 -8 -2l-69 -2v-29l262 -784 q18 74 54 172t56.5 179t20.5 175q0 74 -65.5 179.5t-65.5 162.5v2q2 57 33.5 88t105.5 41q-53 45 -88 69.5t-101.5 62.5t-146.5 56.5t-174 18.5q-197 0 -374 -110.5t-236 -237.5zM610 109q31 -37 197 -37q8 0 19.5 1t17.5 1q156 4 221 45l-236 641zM1186 170 q133 88 215 191.5t125 252.5q29 94 28 199q0 195 -79 354q-2 8 -7 9q-2 0 -2 -9q0 -4 1 -26.5t1 -40.5q0 -84 -16 -150z" />
<glyph unicode="X" horiz-adv-x="1572" d="M16 918v190h150v45q0 123 26.5 211t62.5 133t101.5 71.5t109.5 33t120 10.5h32q53 0 133 -15.5t105 -19.5v-207q-164 47 -225 47h-27q-111 -8 -125 -176v-129h385v37q0 246 105.5 355.5t330.5 109.5q98 0 259 -39v-205q-31 6 -76 18.5t-79 19.5t-69 7q-59 0 -105 -39 t-52 -135v-133h276v-186h-278v-922h-308v918h-387v-918h-309v918h-156z" />
<glyph unicode="Y" horiz-adv-x="1265" d="M43 645q0 18 27 146q2 8 5 32l4 33q1 8 6 25.5t9 25.5t12.5 18.5t19.5 14.5t26 6h2q23 0 94 -42t161.5 -103.5t92.5 -63.5q4 -6 12 -15t11 -16.5t3 -15.5q-4 -39 -55 -49q-74 -18 -127 -27.5t-126 -17.5t-105 -12q-12 4 -19.5 1t-16.5 1t-22 16q-14 14 -14 43zM164 1450 q0 2 1 7t1 9q4 29 29.5 45.5t86 29.5t76.5 20q113 39 185 38h10q43 -4 43 -69v-6l33 -561q-6 -88 -41 -101q-12 -4 -21 -4q-29 0 -78 53l-313 486q-12 45 -12 53zM250 213q0 35 35 74l256 229q23 16 45 16q12 0 22 -6q20 -14 23 -55l-33 -356q-18 -63 -63 -64l-5 2h-6 q-29 2 -77 27.5t-78 38.5q-119 41 -119 94zM733 784q0 23 25 64l192 264q31 31 56 31h6q23 0 41 -17.5t47 -60.5l33 -49q72 -92 71 -139q0 -37 -41 -60l-321 -74q-12 -6 -49 -6t-52 17q-8 14 -8 30zM756 563q0 16 8 27q12 14 47 14q20 0 45 -6l313 -121q43 -27 43 -61v-10 q-2 -10 -7 -22.5t-17 -28t-21.5 -26t-27 -30.5t-25.5 -28.5t-28.5 -32t-32 -34.5t-29.5 -22.5t-37 -11.5h-8q-29 4 -57 43l-160 311q-6 21 -6 39z" />
<glyph unicode="Z" horiz-adv-x="1730" d="M18 1298h697v-69l-209 -37l293 -404l301 289h-221v74h571l-18 -59l-158 -15l-412 -377v-284h209v-94h-668v71l218 29v287l-385 483l-199 33zM1237 352l29 111l125 -41l-33 -111zM1319 549l123 520l274 -96l-297 -467z" />
<glyph unicode="a" d="M8 219q0 94 58 158q59 66 151 65q109 -4 168 -65q61 -66 61 -166v-4q0 -92 -69.5 -149.5t-163.5 -57.5q-84 0 -145 61q-60 60 -60 158zM8 768v322q223 0 434 -89q205 -86 365 -253q276 -295 283 -748h-320q0 311 -233 549q-214 219 -529 219zM8 1327v322h29 q680 0 1155 -492q233 -240 342 -549q113 -319 113 -600v-8h-320v8q0 250 -100 508q-98 250 -269 418q-188 190 -438 291q-258 102 -512 102z" />
<glyph unicode="b" horiz-adv-x="1607" d="M23 492v614q0 18 4 49t37.5 113t93 147.5t139.5 105.5t129 48l51 6h379q14 0 41 -4t102.5 -37t141.5 -88q70 -57 116 -151.5t46 -176.5v-4q0 -57 19 -90t38 -37l20 -6h125q4 2 9 2q19 0 49 -29q25 -23 24 -57v-436q-2 -18 -7 -50t-34.5 -110t-77.5 -129 q-68 -76 -153.5 -118t-122.5 -47t-59 -5h-670q-18 2 -51 9t-112 44t-134 92q-123 123 -141 328zM434 1051q-2 -27 29 -52q12 -8 26.5 -13t22.5 -5h8h293q35 0 59 25q12 12 18.5 26.5t6.5 20.5v8v31q4 20 -25 49q-27 25 -59 24h-297q-3 1 -7 1q-20 0 -46 -21q-29 -25 -29 -53 v-41zM436 477q-2 -25 27 -47q14 -10 27.5 -14t21.5 -4h6h578h4q28 0 53 24q10 12 17.5 23.5t9.5 17.5l2 6v37q-2 20 -25 45q-10 12 -27.5 20.5t-27.5 10.5l-12 2h-568q-31 0 -59 -20q-12 -8 -18.5 -19.5t-6.5 -17.5l-2 -9v-55z" />
<glyph unicode="c" d="M33 815q0 160 105.5 269.5t262.5 109.5q135 0 247 -105.5t112 -248.5q0 -141 -104.5 -256t-241.5 -115q-152 0 -266.5 102.5t-114.5 243.5zM893 852q0 150 104.5 257.5t249.5 107.5q156 0 264.5 -102.5t108.5 -256.5q0 -158 -106.5 -263.5t-245.5 -105.5 q-152 0 -263.5 108t-111.5 255z" />
<glyph unicode="d" horiz-adv-x="1675" d="M88 143v639h719v-700h-653h-7q-23 0 -41 18q-8 8 -12 18.5t-4 16.5zM877 856v102l104 -102h-104zM877 1055v100l299 -299h-103zM877 1245v103l491 -492h-102zM877 1444v102l688 -690h-99zM971 1548l110 2l506 -506v-114zM1182 1550l106 -2l301 -303v-104zM1391 1550 l98 -2l100 -102v-100zM1552 1552h37v-39z" />
<glyph unicode="e" horiz-adv-x="1640" d="M20 700q2 201 11.5 291t42.5 178q29 76 92 152t131 76h4q76 -2 136.5 -74t88.5 -147q55 -147 56 -426v-52h-242l-4 -401q41 -6 57.5 -10t47 -16.5t43 -32t12.5 -48.5q0 -53 -44 -79.5t-81 -26.5h-164q-39 2 -83 25.5t-44 68.5q0 39 19.5 60.5t42 29.5t87.5 25v403 q-33 0 -88 1t-88 3h-33zM545 1262h217v-230q6 -20 20 -31l37 -12h488q33 4 43 15l22 30v236h174q45 -4 60 -29q8 -10 12 -28.5t4 -32.5v-13v-299q-2 -37 -23 -55q-23 -18 -43 -16h-137v-709q-2 -39 -16 -53q-6 -6 -19.5 -11.5t-23.5 -7.5h-8h-234v519q-4 27 -24 26 q-10 -2 -17.5 -8t-9.5 -12l-2 -6l-2 -519h-293q-3 -1 -6 0q-17 0 -41 17q-12 8 -18.5 19t-8.5 18v8v772l-69 2q-4 131 -21 219q-6 35 -15 63.5t-23.5 65.5t-22.5 62zM815 1094v6v389q-2 23 16 41q16 14 39 14h394h4q20 0 35 -16q8 -8 12 -18.5t4 -14.5v-6v-391 q4 -14 -14 -37q-8 -10 -18 -14q-6 -3 -11 -3h-4h-6h-396h-4q-18 0 -35 17q-8 8 -12 18.5t-4 14.5z" />
<glyph unicode="f" horiz-adv-x="780" d="M6 811v287h162v215q0 127 83 222t198 95h315v-278h-166q-33 0 -57.5 -27t-24.5 -55v-170h252l-33 -283h-219v-817h-346v811h-164z" />
<glyph unicode="g" horiz-adv-x="1619" d="M12 848q0 98 21 156q41 106 85 185t122.5 172t205.5 159.5t293 97.5q86 16 179 16q109 0 192 -22q102 -29 261 -92.5t159 -85.5q0 -2 -2 -4l-160 -164l-106 -27l51 109q-20 18 -56 44.5t-125.5 76t-154.5 57.5q-78 8 -115 8q-123 0 -229 -61q-352 -201 -352 -586 q0 -45 2 -68q12 -184 114.5 -352t282.5 -262q147 -78 360 -78q152 0 252 53q2 37 2 82l-2 234h-338l172 104h480l-70 -80v-373l-330 -114q-113 -27 -254 -27q-147 0 -282 25q-209 59 -270.5 93t-192.5 165q-98 96 -146.5 254t-48.5 305z" />
<glyph unicode="h" horiz-adv-x="1742" d="M23 555q0 100 56 190.5t141 150.5t185.5 105.5t190.5 65.5t154 20v-155q-467 -102 -467 -377q0 -158 146 -257t370 -134v1276l254 123v-1436l-256 -123q-102 6 -225 40t-251 96.5t-213 172t-85 242.5zM1098 930v162q131 -14 235 -48q41 -12 75 -26t79 -35.5t72 -34.5 l133 74l32 -371l-495 111l135 78q-104 53 -119 57q-10 4 -147 33z" />
<glyph unicode="i" horiz-adv-x="1689" d="M12 1425v9q0 80 52.5 138t130.5 60h4q82 0 139 -57t61 -141v-9q0 -78 -55 -132t-135 -56h-2q-78 0 -135.5 54t-59.5 134zM14 0l2 1126h377v-1126h-379zM573 2v1124h381v-110q2 0 17.5 14t41 29.5t63.5 33t97.5 29t129.5 13.5q90 -2 159.5 -28t106.5 -60.5t61.5 -85 t31.5 -87t11 -79.5v-795l-385 2v750q-4 27 -47 63.5t-111 36.5h-4q-76 -2 -124 -37t-48 -61v-754z" />
<glyph unicode="j" horiz-adv-x="1603" d="M82 614v424h514v512h428v-516h500v-422h-494v-516h-434v518h-514z" />
<glyph unicode="k" horiz-adv-x="1662" d="M16 1380h1633v-1237h-1631zM127 373l403 403l-403 404v-807zM203 274h1239l-414 412q-57 -55 -99 -77.5t-104 -24.5h-6q-41 0 -77.5 17t-56 33.5t-62.5 59.5zM213 1270l483 -484l19 -18q16 -16 21 -19.5t19.5 -13.5t28 -13t29.5 -3h10q74 0 131 61l492 490h-1233z M1122 770l406 -405v811z" />
<glyph unicode="l" horiz-adv-x="1722" d="M2 678v10q4 233 153.5 374.5t344.5 149.5q98 -8 177 -32.5t121 -54t69.5 -59.5t41 -50.5t17.5 -22.5q18 -20 58 -114.5t102.5 -242t119.5 -257.5q49 -82 164 -82q76 0 146 35q29 14 52 58t23 91q0 43 -20 70q-31 39 -90.5 66.5t-114.5 41t-117.5 47t-99.5 87.5 q-45 63 -45 145q0 121 78 188q76 68 194 68q35 0 90 -6q37 -4 77 -39t63 -68l20 -30l-104 -52q-14 18 -23.5 28.5t-19 19t-12.5 10.5t-17 8t-23 10q-2 0 -5 -1t-5 -1q-12 0 -31.5 3t-27.5 3q-23 0 -39 -12q-10 -8 -19.5 -13t-15.5 -10.5t-11 -10.5t-9 -8t-7.5 -8t-5.5 -8 t-4 -10l-3 -9q-1 -3 -3 -11t-4 -12t-2 -33q0 -63 22 -80q72 -53 196 -87t179 -81q53 -43 71.5 -89t18.5 -128q0 -131 -91 -215t-245 -92h-18q-90 0 -169 49t-116 119q-59 106 -129.5 289.5t-142.5 306.5q-35 59 -122 101t-179 44h-6q-152 0 -261.5 -110.5t-109.5 -268.5v-4 q2 -168 108.5 -279.5t276.5 -113.5h4q59 0 114.5 20.5t91.5 49t63.5 57.5t39.5 49l13 21l59 -146q-47 -51 -90 -90q-43 -37 -137 -69.5t-182 -32.5h-7q-182 4 -333.5 153.5t-151.5 370.5z" />
<glyph unicode="m" horiz-adv-x="1460" d="M27 487v312q6 285 217 284q111 0 180 -106l4 -8q8 10 22.5 24.5t66.5 39t112 24.5q66 0 121 -39t78.5 -72t23.5 -39q12 10 31.5 25.5t82 41t124.5 25.5h4q129 -2 229 -91t119 -238v-668h-709v322h-375v163h-331zM88 1260q0 63 41 114t102 51q63 0 111.5 -44t50.5 -107v-8 q0 -61 -43 -105.5t-106 -44.5q-61 0 -108.5 43.5t-47.5 100.5zM430 1282v4q2 78 58.5 132.5t134.5 54.5q76 0 130 -59.5t54 -129.5q0 -76 -57.5 -134t-131.5 -58q-76 0 -132 56t-56 134zM831 1307q0 109 77 185.5t184 76.5q100 0 178 -78t78 -184q0 -102 -81 -180t-177 -78 q-106 0 -182.5 76t-76.5 182z" />
<glyph unicode="n" horiz-adv-x="1114" d="M125 578q0 47 35 83.5t80 36.5t82.5 -31.5t39.5 -74.5q0 -20 -1 -28.5t-1 -14.5l146 -98v327l-203 144q-8 -2 -18.5 -7.5t-19.5 -8.5t-27 -3l-2 -2q-39 0 -75 35t-36 82q0 49 35 88t84 39q43 0 80.5 -35t40.5 -78q0 -14 -1.5 -21t-3.5 -12.5t-2 -11.5l148 -90v328 l-201 137l-67 -10q-45 0 -79 34.5t-34 81.5q0 49 34 84t81 35q45 0 83.5 -31.5t41.5 -74.5q2 -18 -0.5 -28.5t-2.5 -14.5l144 -101v293h104v-522l144 98q0 4 -1 8.5t-1 24.5q0 53 36.5 86t81.5 33q49 0 85 -34t36 -85q0 -47 -34.5 -83t-75.5 -38q-16 0 -27.5 3t-22 7.5 t-20.5 6.5l-201 -142v-329l144 100q-4 29 -4 37q0 39 36.5 74.5t87.5 35.5q49 0 83 -32.5t34 -83.5q0 -53 -36.5 -86t-82.5 -35q-18 0 -28 3t-17.5 7t-15.5 6l-201 -137v-334l146 100q-4 25 -4 33q0 47 37.5 81t82.5 34q47 0 83 -34t36 -87q0 -51 -39 -85t-78 -34 q-16 0 -27 3t-19.5 8.5t-16.5 7.5l-199 -137v-111h-104v334l-205 143q-25 -16 -65 -16q-45 2 -79 38t-34 81z" />
<glyph unicode="o" horiz-adv-x="1562" d="M31 1145q0 -104 55 -195q-14 -72 -14 -145q0 -246 145 -428q98 -125 243.5 -202t321.5 -77q70 0 140 13q90 -55 200 -56q137 0 254 92q66 51 109 140.5t43 189.5q0 104 -49 195q8 66 8 125q0 313 -193 510q-106 106 -242.5 162.5t-269.5 56.5q-82 0 -139 -17 q-94 55 -203 56q-162 0 -280 -119q-129 -133 -129 -301zM422 569v6q0 33 25.5 56.5t60.5 23.5h4q31 0 53.5 -18.5t48 -50t44 -46t37 -22.5t30.5 -9t35.5 -2t38.5 -3q4 0 12 -1t12 -1q68 0 105 34.5t37 79.5q0 63 -58 78q-47 14 -114 31l-68 16q-4 2 -37 9.5t-42 10.5 t-38.5 12t-41 15.5t-36 19.5t-35 25.5t-26.5 32t-23.5 41t-13.5 49t-6 58.5q0 113 103.5 184.5t236.5 71.5h10q164 -4 252 -61.5t107 -131.5q2 -4 2 -14q0 -31 -28 -53.5t-62 -22.5h-9q-33 2 -52 15.5t-37.5 38t-35.5 36.5q-49 37 -135 37h-16q-137 -6 -137 -100v-2 q0 -41 50 -64.5t152.5 -44t141.5 -33.5q111 -37 155.5 -94t44.5 -153v-9q-2 -127 -105 -194.5t-257 -67.5q-164 0 -270.5 61.5t-114.5 155.5z" />
<glyph unicode="p" horiz-adv-x="1660" d="M6 827q0 193 82 353q119 231 363 364l311 -278l-729 -658q-27 108 -27 219zM63 516l338 305l-2 -694q-80 53 -117.5 84t-84.5 86q-23 27 -42.5 54.5t-29.5 47t-29 56t-33 61.5zM494 78v389h1075q-188 -371 -615 -455q-45 -10 -116 -10q-98 0 -196.5 22.5t-147.5 53.5z M547 1579q106 59 284 59q143 0 336 -75v-541zM1255 551v960q104 -39 228.5 -197.5t161.5 -359.5q12 -68 12 -127q0 -109 -53 -276h-349z" />
<glyph unicode="q" horiz-adv-x="1337" d="M90 338q25 10 90.5 31.5t104.5 48.5q133 96 159 172q10 33 18.5 137t26.5 147q39 100 136 201q35 -12 102.5 -39.5t111.5 -42t79 -20.5q12 -2 32 -2q39 0 106.5 20.5t96.5 24.5l76 -193l-148 -61q-14 -6 -53 -14.5t-58.5 -22.5t-29.5 -45q0 -4 -1 -9t-1 -7 q0 -31 22.5 -52.5t68.5 -62.5t83 -96q119 -178 143 -224l-198 -116q-100 133 -152 176q-162 135 -205 135q-25 0 -66.5 -44t-94 -103.5t-86.5 -81.5q-106 -70 -279 -115zM616 1335q0 90 66 161t160 71q96 0 164.5 -67.5t68.5 -162t-68.5 -163t-162.5 -68.5t-161 67.5 t-67 161.5z" />
<glyph unicode="r" horiz-adv-x="1703" d="M33 809v4q6 86 65.5 139.5t145.5 55.5h6q76 0 139 -56q31 12 74 32t76.5 33t74.5 23q35 8 67 13.5t73 8.5t67 7q0 152 58 229q59 80 165 80q63 0 175 -39q10 27 57 61t104 34q74 0 132.5 -50.5t58.5 -130t-55.5 -131t-126.5 -51.5h-5q-98 2 -155 78q-33 43 -33 113 q-14 4 -37.5 12t-38 12t-35 7t-41.5 3q-84 0 -120 -86q-10 -20 -13.5 -42.5t-4.5 -51.5t-3 -49q121 -8 219 -35q68 -18 193 -80q86 55 149 56q80 0 143.5 -54.5t63.5 -136.5q0 -131 -112 -178q0 -2 2 -10t4 -22.5t2 -28.5q0 -121 -97 -242q-80 -100 -246.5 -173t-361.5 -73 h-14q-207 4 -385 81t-264 216q-55 84 -56 191q0 33 9 57q-39 14 -79 69.5t-40 104.5zM119 803q0 -14 6 -29.5t10 -22t21 -22.5l14 -14q6 10 23.5 43t37.5 59q18 25 31.5 37t30 25.5t26.5 23.5q-39 23 -75 23q-31 0 -56 -13q-70 -39 -69 -106v-4zM229 573 q0 -160 184.5 -280.5t446.5 -120.5q246 0 432.5 115.5t186.5 287.5q0 131 -99.5 228.5t-242 142.5t-297.5 45q-233 0 -422 -117t-189 -301zM500 659q0 39 29.5 69t68.5 30t66.5 -26.5t27.5 -65.5q0 -41 -26.5 -67t-65.5 -26t-69.5 25.5t-30.5 60.5zM553 377q-5 8 -5 16 q0 14 13 27q14 18 39 12q6 -2 35 -20.5t82 -35t129 -16.5q74 0 134 17.5t94 37t40 19.5q23 2 37 -16q10 -18 7 -31.5t-9 -19.5q-45 -35 -134 -61.5t-171 -26.5q-78 0 -175.5 31.5t-115.5 66.5zM1016 659q0 41 28.5 70t67.5 29q31 -4 62.5 -37t31.5 -51v-2q0 -37 -25.5 -66 t-62.5 -29q-41 0 -71.5 23.5t-30.5 62.5zM1280 1251q2 -45 31.5 -72.5t72.5 -27.5q41 0 72 27.5t31 66.5v4q0 43 -30 73t-73 30q-41 0 -72.5 -30t-31.5 -71zM1386 903q8 -8 36 -30.5t44 -43.5l70 -112q49 41 51 82v10q0 53 -38 85t-87 32h-4q-23 0 -33 -3t-21.5 -10.5 t-17.5 -9.5z" />
<glyph unicode="s" horiz-adv-x="1628" d="M0 328v178h539q27 4 45 21.5t18 43.5q0 18 -12 39q-12 18 -46 25.5t-76 9.5t-56 6q-29 8 -57.5 23.5t-62.5 42t-54.5 70.5t-20.5 100q0 2 1 5t1 5q4 100 77 165.5t171 65.5h10h424q82 0 158 -71q51 -47 57 -129q2 -115 2 -342q0 -39 34 -60.5t77 -21.5q80 2 98 71v1063 h174v-1048v-4q0 -117 -80 -185.5t-188 -72.5h-10q-123 0 -194 64.5t-85 166.5l-2 338q0 27 -16 41q-8 8 -14.5 10t-13.5 1t-11 1h-428q-25 0 -44.5 -17.5t-19.5 -47.5q0 -53 84 -62q154 -12 205 -57q29 -29 44 -45t32.5 -57t17.5 -91q0 -68 -25.5 -117.5t-64.5 -75.5 t-69.5 -38t-57.5 -14h-561z" />
<glyph unicode="t" horiz-adv-x="1163" d="M12 614v902q0 78 70 118q55 35 121 35q47 0 96 -20q90 -43 90 -133v-269h604q98 -8 127 -61q39 -72 39 -142q0 -66 -35 -116q-43 -63 -100 -64h-633v-49q0 -221 29 -293q35 -90 182 -98l420 2q119 -35 133 -141q6 -39 6 -72q0 -70 -18 -107q-49 -98 -139 -98h-478 q-262 6 -393 174q-109 135 -121 432z" />
<glyph unicode="u" horiz-adv-x="1722" d="M0 45v4v1542q-2 14 12 31q6 6 14.5 10t14.5 6h6h363q-109 -135 -159 -235t-50 -240q0 -150 71.5 -289t182.5 -223l-39 -375l325 207q63 -25 177 -50t221 -25h8q131 2 291.5 50t285.5 136v-543q-2 -20 -14 -35l-37 -16h-1624q-16 0 -33 16q-8 8 -12 16.5t-4 12.5z M584 1155q0 184 158.5 314t375.5 130q221 0 390 -131t169 -301q0 -186 -169 -314t-386 -132h-4q-203 0 -368.5 132t-165.5 302z" />
<glyph unicode="v" horiz-adv-x="1570" d="M47 813q0 115 75 200t183 85q63 0 90 -11.5t84 -58.5l506 260q0 2 -1 8.5t-1 10.5q0 98 70.5 186t183.5 88q125 0 206 -77t83 -191v-2q0 -133 -88 -205t-172 -72q-70 0 -104 13.5t-77 48.5l-501 -252v-64l491 -248q16 10 35.5 28t29 23t37 10t76.5 5q106 0 188.5 -73.5 t82.5 -196.5q0 -115 -80 -195t-195 -80q-111 0 -189.5 76t-78.5 193q0 2 1 6t1 6l-508 262q-20 -6 -46 -19.5t-50.5 -20.5t-63.5 -7h-8q-109 0 -184.5 77.5t-75.5 186.5z" />
<glyph unicode="w" horiz-adv-x="1638" d="M2 813q0 346 243.5 585.5t569.5 239.5q336 0 579.5 -238.5t243.5 -568.5v-4q-2 -340 -235.5 -582.5t-587.5 -242.5q-336 0 -574.5 236.5t-238.5 574.5zM86 819q0 -195 68 -330q49 -102 141 -194t203 -150l-351 979q-61 -143 -61 -305zM203 1225q8 0 24.5 -4t32.5 -2 q82 4 203 8q12 0 12 -23q0 -6 -4 -10t-6 -5t-11.5 -3t-11.5 -2q-20 -4 -71 -8v-25l264 -793l164 492l-113 321q-51 10 -78 13q-4 2 -12 2t-13 3t-5 9q0 29 24 29h37q18 0 66.5 -3t101.5 -3q59 0 114.5 3t82 3t26.5 -23q0 -10 -5 -13t-26 -7q-6 -2 -8 -2l-69 -2v-29l262 -784 q18 74 54 172t56.5 179t20.5 175q0 74 -65.5 179.5t-65.5 162.5v2q2 57 33.5 88t105.5 41q-53 45 -88 69.5t-101.5 62.5t-146.5 56.5t-174 18.5q-197 0 -374 -110.5t-236 -237.5zM610 109q31 -37 197 -37q8 0 19.5 1t17.5 1q156 4 221 45l-236 641zM1186 170 q133 88 215 191.5t125 252.5q29 94 28 199q0 195 -79 354q-2 8 -7 9q-2 0 -2 -9q0 -4 1 -26.5t1 -40.5q0 -84 -16 -150z" />
<glyph unicode="x" horiz-adv-x="1572" d="M16 918v190h150v45q0 123 26.5 211t62.5 133t101.5 71.5t109.5 33t120 10.5h32q53 0 133 -15.5t105 -19.5v-207q-164 47 -225 47h-27q-111 -8 -125 -176v-129h385v37q0 246 105.5 355.5t330.5 109.5q98 0 259 -39v-205q-31 6 -76 18.5t-79 19.5t-69 7q-59 0 -105 -39 t-52 -135v-133h276v-186h-278v-922h-308v918h-387v-918h-309v918h-156z" />
<glyph unicode="y" horiz-adv-x="1265" d="M43 645q0 18 27 146q2 8 5 32l4 33q1 8 6 25.5t9 25.5t12.5 18.5t19.5 14.5t26 6h2q23 0 94 -42t161.5 -103.5t92.5 -63.5q4 -6 12 -15t11 -16.5t3 -15.5q-4 -39 -55 -49q-74 -18 -127 -27.5t-126 -17.5t-105 -12q-12 4 -19.5 1t-16.5 1t-22 16q-14 14 -14 43zM164 1450 q0 2 1 7t1 9q4 29 29.5 45.5t86 29.5t76.5 20q113 39 185 38h10q43 -4 43 -69v-6l33 -561q-6 -88 -41 -101q-12 -4 -21 -4q-29 0 -78 53l-313 486q-12 45 -12 53zM250 213q0 35 35 74l256 229q23 16 45 16q12 0 22 -6q20 -14 23 -55l-33 -356q-18 -63 -63 -64l-5 2h-6 q-29 2 -77 27.5t-78 38.5q-119 41 -119 94zM733 784q0 23 25 64l192 264q31 31 56 31h6q23 0 41 -17.5t47 -60.5l33 -49q72 -92 71 -139q0 -37 -41 -60l-321 -74q-12 -6 -49 -6t-52 17q-8 14 -8 30zM756 563q0 16 8 27q12 14 47 14q20 0 45 -6l313 -121q43 -27 43 -61v-10 q-2 -10 -7 -22.5t-17 -28t-21.5 -26t-27 -30.5t-25.5 -28.5t-28.5 -32t-32 -34.5t-29.5 -22.5t-37 -11.5h-8q-29 4 -57 43l-160 311q-6 21 -6 39z" />
<glyph unicode="z" horiz-adv-x="1730" d="M18 1298h697v-69l-209 -37l293 -404l301 289h-221v74h571l-18 -59l-158 -15l-412 -377v-284h209v-94h-668v71l218 29v287l-385 483l-199 33zM1237 352l29 111l125 -41l-33 -111zM1319 549l123 520l274 -96l-297 -467z" />
<glyph unicode="&#xaa;" d="M8 219q0 94 58 158q59 66 151 65q109 -4 168 -65q61 -66 61 -166v-4q0 -92 -69.5 -149.5t-163.5 -57.5q-84 0 -145 61q-60 60 -60 158zM8 768v322q223 0 434 -89q205 -86 365 -253q276 -295 283 -748h-320q0 311 -233 549q-214 219 -529 219zM8 1327v322h29 q680 0 1155 -492q233 -240 342 -549q113 -319 113 -600v-8h-320v8q0 250 -100 508q-98 250 -269 418q-188 190 -438 291q-258 102 -512 102z" />
<glyph unicode="&#xba;" horiz-adv-x="1562" d="M31 1145q0 -104 55 -195q-14 -72 -14 -145q0 -246 145 -428q98 -125 243.5 -202t321.5 -77q70 0 140 13q90 -55 200 -56q137 0 254 92q66 51 109 140.5t43 189.5q0 104 -49 195q8 66 8 125q0 313 -193 510q-106 106 -242.5 162.5t-269.5 56.5q-82 0 -139 -17 q-94 55 -203 56q-162 0 -280 -119q-129 -133 -129 -301zM422 569v6q0 33 25.5 56.5t60.5 23.5h4q31 0 53.5 -18.5t48 -50t44 -46t37 -22.5t30.5 -9t35.5 -2t38.5 -3q4 0 12 -1t12 -1q68 0 105 34.5t37 79.5q0 63 -58 78q-47 14 -114 31l-68 16q-4 2 -37 9.5t-42 10.5 t-38.5 12t-41 15.5t-36 19.5t-35 25.5t-26.5 32t-23.5 41t-13.5 49t-6 58.5q0 113 103.5 184.5t236.5 71.5h10q164 -4 252 -61.5t107 -131.5q2 -4 2 -14q0 -31 -28 -53.5t-62 -22.5h-9q-33 2 -52 15.5t-37.5 38t-35.5 36.5q-49 37 -135 37h-16q-137 -6 -137 -100v-2 q0 -41 50 -64.5t152.5 -44t141.5 -33.5q111 -37 155.5 -94t44.5 -153v-9q-2 -127 -105 -194.5t-257 -67.5q-164 0 -270.5 61.5t-114.5 155.5z" />
<glyph unicode="&#x152;" horiz-adv-x="3203" d="M1583 700q2 201 11.5 291t42.5 178q29 76 92 152t131 76h4q76 -2 136.5 -74t88.5 -147q55 -147 56 -426v-52h-242l-4 -401q41 -6 57.5 -10t47 -16.5t43 -32t12.5 -48.5q0 -53 -44 -79.5t-81 -26.5h-164q-39 2 -83 25.5t-44 68.5q0 39 19.5 60.5t42 29.5t87.5 25v403 q-33 0 -88 1t-88 3h-33zM2108 1262h217v-230q6 -20 20 -31l37 -12h488q33 4 43 15l22 30v236h174q45 -4 60 -29q8 -10 12 -28.5t4 -32.5v-13v-299q-2 -37 -23 -55q-23 -18 -43 -16h-137v-709q-2 -39 -16 -53q-6 -6 -19.5 -11.5t-23.5 -7.5h-8h-234v519q-4 27 -24 26 q-10 -2 -17.5 -8t-9.5 -12l-2 -6l-2 -519h-293q-3 -1 -6 0q-17 0 -41 17q-12 8 -18.5 19t-8.5 18v8v772l-69 2q-4 131 -21 219q-6 35 -15 63.5t-23.5 65.5t-22.5 62zM2378 1094v6v389q-2 23 16 41q16 14 39 14h394h4q20 0 35 -16q8 -8 12 -18.5t4 -14.5v-6v-391 q4 -14 -14 -37q-8 -10 -18 -14q-6 -3 -11 -3h-4h-6h-396h-4q-18 0 -35 17q-8 8 -12 18.5t-4 14.5zM31 1145q0 -104 55 -195q-14 -72 -14 -145q0 -246 145 -428q98 -125 243.5 -202t321.5 -77q70 0 140 13q90 -55 200 -56q137 0 254 92q66 51 109 140.5t43 189.5 q0 104 -49 195q8 66 8 125q0 313 -193 510q-106 106 -242.5 162.5t-269.5 56.5q-82 0 -139 -17q-94 55 -203 56q-162 0 -280 -119q-129 -133 -129 -301zM422 569v6q0 33 25.5 56.5t60.5 23.5h4q31 0 53.5 -18.5t48 -50t44 -46t37 -22.5t30.5 -9t35.5 -2t38.5 -3q4 0 12 -1 t12 -1q68 0 105 34.5t37 79.5q0 63 -58 78q-47 14 -114 31l-68 16q-4 2 -37 9.5t-42 10.5t-38.5 12t-41 15.5t-36 19.5t-35 25.5t-26.5 32t-23.5 41t-13.5 49t-6 58.5q0 113 103.5 184.5t236.5 71.5h10q164 -4 252 -61.5t107 -131.5q2 -4 2 -14q0 -31 -28 -53.5t-62 -22.5 h-9q-33 2 -52 15.5t-37.5 38t-35.5 36.5q-49 37 -135 37h-16q-137 -6 -137 -100v-2q0 -41 50 -64.5t152.5 -44t141.5 -33.5q111 -37 155.5 -94t44.5 -153v-9q-2 -127 -105 -194.5t-257 -67.5q-164 0 -270.5 61.5t-114.5 155.5z" />
<glyph unicode="&#x153;" horiz-adv-x="3203" d="M1583 700q2 201 11.5 291t42.5 178q29 76 92 152t131 76h4q76 -2 136.5 -74t88.5 -147q55 -147 56 -426v-52h-242l-4 -401q41 -6 57.5 -10t47 -16.5t43 -32t12.5 -48.5q0 -53 -44 -79.5t-81 -26.5h-164q-39 2 -83 25.5t-44 68.5q0 39 19.5 60.5t42 29.5t87.5 25v403 q-33 0 -88 1t-88 3h-33zM2108 1262h217v-230q6 -20 20 -31l37 -12h488q33 4 43 15l22 30v236h174q45 -4 60 -29q8 -10 12 -28.5t4 -32.5v-13v-299q-2 -37 -23 -55q-23 -18 -43 -16h-137v-709q-2 -39 -16 -53q-6 -6 -19.5 -11.5t-23.5 -7.5h-8h-234v519q-4 27 -24 26 q-10 -2 -17.5 -8t-9.5 -12l-2 -6l-2 -519h-293q-3 -1 -6 0q-17 0 -41 17q-12 8 -18.5 19t-8.5 18v8v772l-69 2q-4 131 -21 219q-6 35 -15 63.5t-23.5 65.5t-22.5 62zM2378 1094v6v389q-2 23 16 41q16 14 39 14h394h4q20 0 35 -16q8 -8 12 -18.5t4 -14.5v-6v-391 q4 -14 -14 -37q-8 -10 -18 -14q-6 -3 -11 -3h-4h-6h-396h-4q-18 0 -35 17q-8 8 -12 18.5t-4 14.5zM31 1145q0 -104 55 -195q-14 -72 -14 -145q0 -246 145 -428q98 -125 243.5 -202t321.5 -77q70 0 140 13q90 -55 200 -56q137 0 254 92q66 51 109 140.5t43 189.5 q0 104 -49 195q8 66 8 125q0 313 -193 510q-106 106 -242.5 162.5t-269.5 56.5q-82 0 -139 -17q-94 55 -203 56q-162 0 -280 -119q-129 -133 -129 -301zM422 569v6q0 33 25.5 56.5t60.5 23.5h4q31 0 53.5 -18.5t48 -50t44 -46t37 -22.5t30.5 -9t35.5 -2t38.5 -3q4 0 12 -1 t12 -1q68 0 105 34.5t37 79.5q0 63 -58 78q-47 14 -114 31l-68 16q-4 2 -37 9.5t-42 10.5t-38.5 12t-41 15.5t-36 19.5t-35 25.5t-26.5 32t-23.5 41t-13.5 49t-6 58.5q0 113 103.5 184.5t236.5 71.5h10q164 -4 252 -61.5t107 -131.5q2 -4 2 -14q0 -31 -28 -53.5t-62 -22.5 h-9q-33 2 -52 15.5t-37.5 38t-35.5 36.5q-49 37 -135 37h-16q-137 -6 -137 -100v-2q0 -41 50 -64.5t152.5 -44t141.5 -33.5q111 -37 155.5 -94t44.5 -153v-9q-2 -127 -105 -194.5t-257 -67.5q-164 0 -270.5 61.5t-114.5 155.5z" />
<glyph unicode="&#x2000;" horiz-adv-x="833" />
<glyph unicode="&#x2001;" horiz-adv-x="1669" />
<glyph unicode="&#x2002;" horiz-adv-x="833" />
<glyph unicode="&#x2003;" horiz-adv-x="1669" />
<glyph unicode="&#x2004;" horiz-adv-x="555" />
<glyph unicode="&#x2005;" horiz-adv-x="415" />
<glyph unicode="&#x2006;" horiz-adv-x="276" />
<glyph unicode="&#x2007;" horiz-adv-x="276" />
<glyph unicode="&#x2008;" horiz-adv-x="206" />
<glyph unicode="&#x2009;" horiz-adv-x="333" />
<glyph unicode="&#x200a;" horiz-adv-x="92" />
<glyph unicode="&#x2013;" horiz-adv-x="1024" d="M205 512v205h614v-205h-614z" />
<glyph unicode="&#x2014;" horiz-adv-x="2048" d="M205 512v205h1638v-205h-1638z" />
<glyph unicode="&#x202f;" horiz-adv-x="333" />
<glyph unicode="&#x205f;" horiz-adv-x="415" />
<glyph unicode="&#x2122;" horiz-adv-x="2623" d="M1190 487v312q6 285 217 284q111 0 180 -106l4 -8q8 10 22.5 24.5t66.5 39t112 24.5q66 0 121 -39t78.5 -72t23.5 -39q12 10 31.5 25.5t82 41t124.5 25.5h4q129 -2 229 -91t119 -238v-668h-709v322h-375v163h-331zM1251 1260q0 63 41 114t102 51q63 0 111.5 -44 t50.5 -107v-8q0 -61 -43 -105.5t-106 -44.5q-61 0 -108.5 43.5t-47.5 100.5zM1593 1282v4q2 78 58.5 132.5t134.5 54.5q76 0 130 -59.5t54 -129.5q0 -76 -57.5 -134t-131.5 -58q-76 0 -132 56t-56 134zM1994 1307q0 109 77 185.5t184 76.5q100 0 178 -78t78 -184 q0 -102 -81 -180t-177 -78q-106 0 -182.5 76t-76.5 182zM12 614v902q0 78 70 118q55 35 121 35q47 0 96 -20q90 -43 90 -133v-269h604q98 -8 127 -61q39 -72 39 -142q0 -66 -35 -116q-43 -63 -100 -64h-633v-49q0 -221 29 -293q35 -90 182 -98l420 2q119 -35 133 -141 q6 -39 6 -72q0 -70 -18 -107q-49 -98 -139 -98h-478q-262 6 -393 174q-109 135 -121 432z" />
<glyph unicode="&#xe000;" horiz-adv-x="1615" d="M0 1615h1615v-1615h-1615v1615z" />
<glyph unicode="&#xfb01;" horiz-adv-x="2469" d="M792 1425v9q0 80 52.5 138t130.5 60h4q82 0 139 -57t61 -141v-9q0 -78 -55 -132t-135 -56h-2q-78 0 -135.5 54t-59.5 134zM794 0l2 1126h377v-1126h-379zM1353 2v1124h381v-110q2 0 17.5 14t41 29.5t63.5 33t97.5 29t129.5 13.5q90 -2 159.5 -28t106.5 -60.5t61.5 -85 t31.5 -87t11 -79.5v-795l-385 2v750q-4 27 -47 63.5t-111 36.5h-4q-76 -2 -124 -37t-48 -61v-754zM6 811v287h162v215q0 127 83 222t198 95h315v-278h-166q-33 0 -57.5 -27t-24.5 -55v-170h252l-33 -283h-219v-817h-346v811h-164z" />
<glyph unicode="&#xfb02;" horiz-adv-x="2502" d="M782 678v10q4 233 153.5 374.5t344.5 149.5q98 -8 177 -32.5t121 -54t69.5 -59.5t41 -50.5t17.5 -22.5q18 -20 58 -114.5t102.5 -242t119.5 -257.5q49 -82 164 -82q76 0 146 35q29 14 52 58t23 91q0 43 -20 70q-31 39 -90.5 66.5t-114.5 41t-117.5 47t-99.5 87.5 q-45 63 -45 145q0 121 78 188q76 68 194 68q35 0 90 -6q37 -4 77 -39t63 -68l20 -30l-104 -52q-14 18 -23.5 28.5t-19 19t-12.5 10.5t-17 8t-23 10q-2 0 -5 -1t-5 -1q-12 0 -31.5 3t-27.5 3q-23 0 -39 -12q-10 -8 -19.5 -13t-15.5 -10.5t-11 -10.5t-9 -8t-7.5 -8t-5.5 -8 t-4 -10l-3 -9q-1 -3 -3 -11t-4 -12t-2 -33q0 -63 22 -80q72 -53 196 -87t179 -81q53 -43 71.5 -89t18.5 -128q0 -131 -91 -215t-245 -92h-18q-90 0 -169 49t-116 119q-59 106 -129.5 289.5t-142.5 306.5q-35 59 -122 101t-179 44h-6q-152 0 -261.5 -110.5t-109.5 -268.5v-4 q2 -168 108.5 -279.5t276.5 -113.5h4q59 0 114.5 20.5t91.5 49t63.5 57.5t39.5 49l13 21l59 -146q-47 -51 -90 -90q-43 -37 -137 -69.5t-182 -32.5h-7q-182 4 -333.5 153.5t-151.5 370.5zM6 811v287h162v215q0 127 83 222t198 95h315v-278h-166q-33 0 -57.5 -27t-24.5 -55 v-170h252l-33 -283h-219v-817h-346v811h-164z" />
<glyph unicode="&#xfb03;" horiz-adv-x="3250" d="M1573 1425v9q0 80 52.5 138t130.5 60h4q82 0 139 -57t61 -141v-9q0 -78 -55 -132t-135 -56h-2q-78 0 -135.5 54t-59.5 134zM1575 0l2 1126h377v-1126h-379zM2134 2v1124h381v-110q2 0 17.5 14t41 29.5t63.5 33t97.5 29t129.5 13.5q90 -2 159.5 -28t106.5 -60.5t61.5 -85 t31.5 -87t11 -79.5v-795l-385 2v750q-4 27 -47 63.5t-111 36.5h-4q-76 -2 -124 -37t-48 -61v-754zM786 811v287h162v215q0 127 83 222t198 95h315v-278h-166q-33 0 -57.5 -27t-24.5 -55v-170h252l-33 -283h-219v-817h-346v811h-164zM6 811v287h162v215q0 127 83 222t198 95 h315v-278h-166q-33 0 -57.5 -27t-24.5 -55v-170h252l-33 -283h-219v-817h-346v811h-164z" />
<glyph unicode="&#xfb04;" horiz-adv-x="3282" d="M1563 678v10q4 233 153.5 374.5t344.5 149.5q98 -8 177 -32.5t121 -54t69.5 -59.5t41 -50.5t17.5 -22.5q18 -20 58 -114.5t102.5 -242t119.5 -257.5q49 -82 164 -82q76 0 146 35q29 14 52 58t23 91q0 43 -20 70q-31 39 -90.5 66.5t-114.5 41t-117.5 47t-99.5 87.5 q-45 63 -45 145q0 121 78 188q76 68 194 68q35 0 90 -6q37 -4 77 -39t63 -68l20 -30l-104 -52q-14 18 -23.5 28.5t-19 19t-12.5 10.5t-17 8t-23 10q-2 0 -5 -1t-5 -1q-12 0 -31.5 3t-27.5 3q-23 0 -39 -12q-10 -8 -19.5 -13t-15.5 -10.5t-11 -10.5t-9 -8t-7.5 -8t-5.5 -8 t-4 -10l-3 -9q-1 -3 -3 -11t-4 -12t-2 -33q0 -63 22 -80q72 -53 196 -87t179 -81q53 -43 71.5 -89t18.5 -128q0 -131 -91 -215t-245 -92h-18q-90 0 -169 49t-116 119q-59 106 -129.5 289.5t-142.5 306.5q-35 59 -122 101t-179 44h-6q-152 0 -261.5 -110.5t-109.5 -268.5v-4 q2 -168 108.5 -279.5t276.5 -113.5h4q59 0 114.5 20.5t91.5 49t63.5 57.5t39.5 49l13 21l59 -146q-47 -51 -90 -90q-43 -37 -137 -69.5t-182 -32.5h-7q-182 4 -333.5 153.5t-151.5 370.5zM786 811v287h162v215q0 127 83 222t198 95h315v-278h-166q-33 0 -57.5 -27t-24.5 -55 v-170h252l-33 -283h-219v-817h-346v811h-164zM6 811v287h162v215q0 127 83 222t198 95h315v-278h-166q-33 0 -57.5 -27t-24.5 -55v-170h252l-33 -283h-219v-817h-346v811h-164z" />
</font>
</defs>
</svg>
